Регистрация ·  Логин: Пароль: Запомнить   · Забыли пароль?




Ответить на тему
Автор Сообщение

Модератор
Аватара пользователя

С нами: 8 лет 6 месяцев
Сообщения: 37463
Город: Гуанчжоу
Китай

Сообщение 16 окт 2021, 22:28 

[Цитировать]

Алексей Пахомов | Анализ осциллограмм [7 уроков] (2016) PCRec
Автор (режиссер): Алексей Пахомов
Жанр: Автомобили, Ремонт, Диагностика

Описание:
Модуль Алексея Пахомова "Анализ осциллограмм", обучающей программы "Автоэлектрик-диагност".
В этом модуле автор расскажет вам как по осциллограммам можно определить практически любую неисправность в двигателе автомобиля. Раньше, до изменения структуры подачи материала этот модуль назывался
видеокурс "101 осциллограмма". В этой раздаче 7 уроков.

Продолжительность: 04:34:18
Качество видео: PCRec

Видео: AVC, 1280x720, ~672 Kbps
Аудио: AAC, 2ch, 126Kbps, CBR
Код:
Формат                                   : MPEG-4
Профиль формата                          : Base Media / Version 2
Идентификатор кодека                     : mp42 (isom/mp42)
Режим общего битрейта                    : Переменный
Общий поток                              : 800 Кбит/сек

Видео
Идентификатор                            : 1
Формат                                   : AVC
Формат/Информация                        : Advanced Video Codec
Профиль формата                          : [url=https://nnmclub.to/mailto:[email protected]][email protected][/url]
Параметр CABAC формата                   : Да
Параметр ReFrames формата                : 3 кадра
Идентификатор кодека                     : avc1
Идентификатор кодека/Информация          : Advanced Video Coding
Битрейт                                  : 672 Кбит/сек
Ширина                                   : 1280 пикселей
Высота                                   : 720 пикселей
Соотношение сторон                       : 16:9
Режим частоты кадров                     : Постоянный
Частота кадров                           : 30,000 кадров/сек
Стандарт вещания                         : NTSC
Цветовое пространство                    : YUV
Субдискретизация насыщенности            : 4:2:0
Битовая глубина                          : 8 бит
Тип развёртки                            : Прогрессивная
Бит/(Пиксели*Кадры)                      : 0.024
Размер потока                            : 221 Мбайт (84%)
Язык                                     : English
Цветовой диапазон                        : Limited

Аудио
Идентификатор                            : 2
Формат                                   : AAC
Формат/Информация                        : Advanced Audio Codec
Профиль формата                          : LC
Идентификатор кодека                     : 40
Вид битрейта                             : Переменный
Битрейт                                  : 126 Кбит/сек
Максимальный битрейт                     : 150 Кбит/сек
Каналы                                   : 2 канала
Расположение каналов                     : Front: L R
Частота                                  : 44,1 КГц
Частота кадров                           : 43,066 кадра/сек (1024 spf)
Метод сжатия                             : С потерями
Размер потока                            : 41,4 Мбайт (16%)
Язык                                     : English
Здравствуйте, дорогой друг! С вами Алексей Пахомов.
Вы работаете мотортестером, не так ли? Неважно, чем именно: это может быть Autoscope, MotoDoc, DiaMag или какой-то другой. Я подумал: если люди работают мотортестерами, то им, пожалуй, будут интересны примеры работы с этим прибором. Сложные случаи, каверзные дефекты, необычные осциллограммы. Да и просто типовые осциллограммы исправных двигателей. Поэтому я залез в свой компьютер, выбрал для вас свыше ста интересных осциллограмм и снял о них цикл уроков. Я назвал этот модуль "Анализ осциллограмм".
Еще хочу сказать, что модуль мы создавали с вами вместе. Вы присылаете мне письма с вопросами, вкладываете в них осциллограммы. И иногда эти осциллограммы - просто бомба! Я думаю, всем будет интересно взглянуть на них. Это и незаводка двигателя, и поиск спорадических дефектов, и нестандартные системы зажигания, а также весьма редкие, но характерные неисправности. Каким мотортестером они получены? Разными. И Мотодоком, и Автоскопом, и Диамагом. Но это не принципиально: все осциллограммы анализируются одинаково, независимо от того, каким прибором они сняты. На сегодня модуль "Анализ осциллограмм" состоит из 7 уроков общей продолжительностью свыше 4 часов. Но модуль будет постоянно обновляться, и вы будете в курсе всей самой свежей и актуальной информации! Помимо этого, вы сможете скачать и рассмотреть самостоятельно все показанные мной осциллограммы и задать мне любой вопрос в форуме.

Скриншоты:

Время раздачи: с 18.00 до 24.00 (до появления первых 3-5 скачавших)

Способы оплаты:





Download
Советуем установить Brave Private Browser со встроеннымTor и IPFS для обхода блокировок.
Для скачивания .torrent файлов необходима регистрация
atorrent.xyz не распространяет и не хранит электронные версии произведений, а лишь предоставляет доступ к создаваемому пользователями каталогу ссылок на торрент-файлы, которые содержат только списки хеш-сумм.

Помоги нашему сайту любой суммой!


Кошелёк Номер счёта
На баланс телефона: +79046733080
Qiwi (Киви): +79046733080
Банковская карта: 5599 0050 8222 4002
Яндекс деньги (Можно перевести с любой карты): 410011822421129
(Рубли) WebMoney WMP: P981956481128
(Доллары) WebMoney WMZ: Z030977025876



Закрыть окно

Страница 1 из 1

Ответить на тему

   Похожие торренты   Торрент 




cron