Регистрация ·  Логин: Пароль: Запомнить   · Забыли пароль?




Ответить на тему
Автор Сообщение

Модератор
Аватара пользователя

С нами: 8 лет 6 месяцев
Сообщения: 37463
Город: Гуанчжоу
Китай

Сообщение 16 окт 2021, 22:28 

[Цитировать]

Андрей Татауров, Алексей Пахомов | Устройство легкового автомобиля + Автокондиционеры (2013) [CamRip, PCRec]
Автор (режиссер): Андрей Татауров, Алексей Пахомов
Жанр: Авто, автокондиционеры
Продолжительность: 05:00:00
Качество видео: CamRip, PCRec
Видеокодек: AVC
Битрейт видео: ~1099 kbps
Размер кадра: 1280x720
Аудиокодек: AAC 2.0
Битрейт аудио: 128 kbps (CBR), 2 Ch, 44100 Hz

Описание:
Данное видео руководства непременно поможет почти всем начинающим автовладельцам ориентироваться в особенностях личного авто, Вы узнаете об устройствах и принципах работы всех систем автомобиля, методах правильной эксплуатации, факторах возникновения поломок, и методах их устранения.

Этот курс призван помочь начинающим водителям вникнуть в суть процессов, происходящих внутри их железного коня и сделать из них грамотных пользователей, которые знают, как устроены все узлы и агрегаты автомобиля, и как правильно эксплуатировать, чтобы уменьшить свои затраты на топливо и ремонт и повысить безопасность вождения.
Устройство легкового автомобиля:

● Общее устройство автомобиля
● Рабочий цикл четырехтактного бензинового и дизельного двигателя
● Основные механизмы и системы двигателя внутреннего сгорания, их назначение
● Кривошипно-шатунный механизм
● Газораспределительный механизм
● Система охлаждения двигателя
● Система смазки двигателя,способы смазывания деталей двигателя
● Топливо и топливо - воздушная смесь
● Общее устройство системы питания
● Карбюратор
● Инжектор
● Система питания дизеля
● Система питания двигателя от газобаллонной установки
● Система зажигания
● Трансмиссия автомобиля, сцепление
● Коробка передач
● Автоматическая коробка передач
● Вариатор
● Карданная и главная передачи
● Электрооборудование автомобиля
● Стартер
● Ходовая часть автомобиля
● Колеса и шины
● Рулевое управление автомобиля
● Тормозная система автомобиля
● Автомобильные масла и смазки
● Элементы теории автомобиля

Автокондиционеры: диагностика, ремонт, заправка

Увеличьте прибыль своего автосервиса, внедрив услугу по диагностике и ремонту Автокондиционеров. Диагностика автокондиционеров не преподается в учебных заведениях. Все специалисты, имеющие опыт в этой области, работают на автосервисах и не спешат делиться с конкурентами своими знаниями.

В видеокурсе даны подробные рекомендации по покупке диагностического оборудования:
1. Что купить
2. Где купить
3. Как применить
Общее
Формат : MPEG-4
Профиль формата : Base Media
Идентификатор кодека : isom
Размер файла : 55,9 Мбайт
Режим общего битрейта : Переменный
Общий поток : 1230 Кбит/сек

Видео
Идентификатор : 1
Формат : AVC
Формат/Информация : Advanced Video Codec
Профиль формата : [email protected]
Параметр CABAC формата : Да
Параметр ReFrames формата : 4 кадра
Идентификатор кодека : avc1
Идентификатор кодека/Информация : Advanced Video Coding
Битрейт : 1099 Кбит/сек
Максимальный битрейт : 3308 Кбит/сек
Ширина : 1280 пикселей
Высота : 720 пикселей
Соотношение сторон : 16:9
Режим частоты кадров : Постоянный
Частота кадров : 25,000 кадров/сек
Цветовое пространство : YUV
Субдискретизация насыщенности : 4:2:0
Битовая глубина : 8 бит
Тип развёртки : Прогрессивная
Бит/(Пиксели*Кадры) : 0.048
Размер потока : 49,9 Мбайт (89%)

Аудио
Идентификатор : 2
Формат : AAC
Формат/Информация : Advanced Audio Codec
Профиль формата : LC
Идентификатор кодека : 40
Вид битрейта : Переменный
Битрейт : 128 Кбит/сек
Максимальный битрейт : 137 Кбит/сек
Каналы : 2 канала
Расположение каналов : Front: L R
Частота : 44,1 КГц
Метод сжатия : С потерями
Размер потока : 5,81 Мбайт (10%)

Скриншоты:


Время раздачи: Круглосуточно

Способы оплаты:





Download
Советуем установить Brave Private Browser со встроеннымTor и IPFS для обхода блокировок.
Для скачивания .torrent файлов необходима регистрация
atorrent.xyz не распространяет и не хранит электронные версии произведений, а лишь предоставляет доступ к создаваемому пользователями каталогу ссылок на торрент-файлы, которые содержат только списки хеш-сумм.

Помоги нашему сайту любой суммой!


Кошелёк Номер счёта
На баланс телефона: +79046733080
Qiwi (Киви): +79046733080
Банковская карта: 5599 0050 8222 4002
Яндекс деньги (Можно перевести с любой карты): 410011822421129
(Рубли) WebMoney WMP: P981956481128
(Доллары) WebMoney WMZ: Z030977025876



Закрыть окно

Страница 1 из 1

Ответить на тему

   Похожие торренты   Торрент 




cron