Регистрация ·  Логин: Пароль: Запомнить   · Забыли пароль?




Ответить на тему
Автор Сообщение

Модератор
Аватара пользователя

С нами: 8 лет 6 месяцев
Сообщения: 37463
Город: Гуанчжоу
Китай

Сообщение 16 окт 2021, 22:28 

[Цитировать]

Алексей Пахомов | Диагностика бензиновых двигателей. Старт, Практик, Эксперт (2013) [DVDRip]
Автор (режиссер): Алексей Пахомов
Жанр: Обучающие видеуроки
Продолжительность: 45:13:16
Качество видео: DVDRip
Видеокодек: WMV
Битрейт видео: ~1 465 Kbps
Размер кадра: 1280х720
Аудиокодек: WMA
Битрейт аудио: 128 Kbps, 2 ch

Описание:
Представляем Вам уникальную систему дистанционного обучения "Диагностика бензиновых двигателей: три ступени к успеху". Ее уникальность в том, что в ней впервые обобщена теория с десятилетней практикой.Вы получите готовое решение, позволяющее увеличить доход Вашего автосервиса.

Видеокурс создан профессиональным автодиагностом на основе 10-летнего опыта работы на реальном автосервисе, где обслуживались все марки автомобилей. Вся информация грамотно систематизирована, поэтому легко и быстро усваивается.
Курс СТАРТ
Из курса Вы усзнаете
*как скомплектовать оборудование для диагностики и не допустить при этом ошибок;
*как устроена современная система управления двигателем;
*как работать самым главным диагностическим прибором – сканером.
*И самое главное: Вы увидите три практических диагностики на реальном автосервисе!

После изучения Вы сможете
-Находить неисправные датчики, регуляторы холостого хода, модули зажигания;
-Считывать и анализировать коды неисправностей;
-Проверять правильность работы системы управления двигателем;
-Находить дефекты механики двигателя: прогоревшие клапана, изношенные кольца и др.
-Перечисленный комплекс работ на автосервисах в среднем стоит 700-1000 рублей, при этом занимает 15-20 минут рабочего времени.
-Вы сможете выполнять диагностику на следующих марках автомобилей: ВАЗ (все модели), а также самых массовых моделях Renault, Chevrulet, Ford, КIA, DAEWOO, HYUNDAI.

Курс ПРАКТИК
Это более серьезный уровень. Пройдя его, Вы сможете
*Грамотно искать дефекты в системах зажигания;
*Выявлять проблемы в системе подачи топлива;
*Анализировать состав отработанных газов и обнаруживать ненормальное сгорание бензина;
*Искать дефекты во впускном и выпускном трактах – забитые катализаторы, подсосы воздуха, трещины и негерметичность;
*Читать электрические схемы систем управления двигателем и находить дефекты в электропроводке.
*И самое главное: во второй ступени Вы получите полную классификацию систем управления ВАЗ.

Курс ЭКСПЕРТ
(Высший пилотаж диагностики - это работа с мотортестером. Если вы одолели две первые ступени, то третья сделает из вас специалиста самой высшей пробы.)
Пройдя ее, Вы научитесь
*за одно измерение выяснять, правильно ли установлен ремень ГРМ;
*определять, не забит ли катализатор;
*выяснять, нет ли проблем в механической части, форсунках и системе зажигания.
*Причем все это – не разбирая двигателя! За пять минут!
General
Complete name : ПРАКТИК_01_Системы зажигания. Часть 1.wmv
Format : Windows Media
File size : 1.11 GiB
Duration : 1h 39mn
Overall bit rate mode : Variable
Overall bit rate : 1 604 Kbps
Maximum Overall bit rate : 6 812 Kbps
Encoded date : UTC 2013-02-18 11:09:18.667
SfOriginalFPS : 250000
MediaFoundationVersion : 2.112

Video
ID : 2
Format : VC-1
Format profile : [email protected]
Codec ID : WMV3
Codec ID/Info : Windows Media Video 9
Codec ID/Hint : WMV3
Description of the codec : Windows Media Video 9 - Professional
Duration : 1h 39mn
Bit rate mode : Variable
Bit rate : 1 465 Kbps
Width : 1 280 pixels
Height : 720 pixels
Display aspect ratio : 16:9
Frame rate : 25.000 fps
Bit depth : 8 bits
Scan type : Progressive
Compression mode : Lossy
Bits/(Pixel*Frame) : 0.064
Stream size : 1.02 GiB (91%)
Language : Russian

Audio
ID : 1
Format : WMA
Format version : Version 2
Codec ID : 161
Codec ID/Info : Windows Media Audio
Description of the codec : Windows Media Audio 9.2 - 128 kbps, 44 kHz, stereo (A/V) 1-pass CBR
Duration : 1h 39mn
Bit rate mode : Constant
Bit rate : 128 Kbps
Channel(s) : 2 channels
Sampling rate : 44.1 KHz
Bit depth : 16 bits
Stream size : 91.0 MiB (8%)
Language : Russian
Скриншоты:


Время раздачи: 24/7 (круглосуточно) - до 5 скачавших, далее по возможности.

Способы оплаты:





Download
Советуем установить Brave Private Browser со встроеннымTor и IPFS для обхода блокировок.
Для скачивания .torrent файлов необходима регистрация
atorrent.xyz не распространяет и не хранит электронные версии произведений, а лишь предоставляет доступ к создаваемому пользователями каталогу ссылок на торрент-файлы, которые содержат только списки хеш-сумм.

Помоги нашему сайту любой суммой!


Кошелёк Номер счёта
На баланс телефона: +79046733080
Qiwi (Киви): +79046733080
Банковская карта: 5599 0050 8222 4002
Яндекс деньги (Можно перевести с любой карты): 410011822421129
(Рубли) WebMoney WMP: P981956481128
(Доллары) WebMoney WMZ: Z030977025876



Закрыть окно

Страница 1 из 1

Ответить на тему

   Похожие торренты   Торрент 




cron