Регистрация ·  Логин: Пароль: Запомнить   · Забыли пароль?




Ответить на тему
Автор Сообщение

Модератор
Аватара пользователя

С нами: 8 лет 6 месяцев
Сообщения: 37463
Город: Гуанчжоу
Китай

Сообщение 16 окт 2021, 22:28 

[Цитировать]

Алексей Пахомов | Семинар "Газообмен в бензиновом двигателе" (2014) PCRec [H.264/720p]
Автор (режиссер): Алексей Пахомов
Год выпуска: 2014
Название: Семинар "Газообмен в бензиновом двигателе"
Жанр: Авто
Описание:
26 октября 2014 года Школа автомобильной диагностики организовала семинар "Газообмен в современном бензиновом двигателе и методики его контроля". Занятия провел Алексей Пахомов. В этом семинаре речь шла о:
1. Газообмен в цилиндре бензинового двигателя: что это такое?
2. Методики контроля газообмена: осциллограмма давления в цилиндре, графики количества газов, показания сканера.
3. Газообмен в классическом двигателе и в двигателе с системой переменных фаз.
4. Анализ осциллограммы давления в цилиндре двигателей при наличии и отсутствии системы переменных фаз с примерами.
5. Практическая работа: снятие и анализ осциллограммы давления мотортестерами MotoDoc III и USB Autoscope IV.
6. График количества газов в цилиндре и извлекаемая из него информация.
7. Диаграмма наполнения цилиндров и диаграмма потерь в выпускном тракте.
8. Практическая работа: получение и сравнение диаграмм на двигателях автомобилей ВАЗ 2110 и Ford Focus.
9. Практическая работа: Имитация неисправностей и анализ полученных диаграмм
Продолжительность: 03:58:11
Качество видео: PCRec
Видео: AVC, 1280x720, ~746 Кbps
Аудио: AAC, 2ch, 128 Кbps, CBR
Код:
Код:
Общее

Формат                                   : MPEG-4
Профиль формата                          : Base Media
Идентификатор кодека                     : isom
Размер файла                             : 502 Мбайт
Продолжительность                        : 1 ч. 19 м.
Общий поток                              : 880 Кбит/сек
Программа кодирования                    : Lavf55.42.100

Видео
Идентификатор                            : 1
Формат                                   : AVC
Формат/Информация                        : Advanced Video Codec
Профиль формата                          : [url=https://nnmclub.to/mailto:[email protected]][email protected][/url]
Параметр CABAC формата                   : Да
Параметр ReFrames формата                : 4 кадра
Идентификатор кодека                     : avc1
Идентификатор кодека/Информация          : Advanced Video Coding
Продолжительность                        : 1 ч. 19 м.
Битрейт                                  : 746 Кбит/сек
Ширина                                   : 1280 пикселей
Высота                                   : 720 пикселей
Соотношение сторон                       : 16:9
Режим частоты кадров                     : Постоянный
Частота кадров                           : 25,000 кадров/сек
Цветовое пространство                    : YUV
Субдискретизация насыщенности            : 4:2:0
Битовая глубина                          : 8 бит
Тип развёртки                            : Прогрессивная
Бит/(Пиксели*Кадры)                      : 0.032
Размер потока                            : 426 Мбайт (85%)
Библиотека кодирования                   : x264 core 120 r2146 bcd41db
Язык                                     : Russian

Аудио
Идентификатор                            : 2
Формат                                   : AAC
Формат/Информация                        : Advanced Audio Codec
Профиль формата                          : LC
Идентификатор кодека                     : 40
Продолжительность                        : 1 ч. 19 м.
Вид битрейта                             : Постоянный
Битрейт                                  : 128 Кбит/сек
Каналы                                   : 2 канала
Расположение каналов                     : Front: L R
Частота                                  : 48,0 КГц
Метод сжатия                             : С потерями
Размер потока                            : 73,1 Мбайт (15%)
Язык                                     : Russian

Как вы наверняка заметили, речь на семинаре шла о "дыхании" двигателя и методиках его диагностики. "Вдох" мы оцениваем по диаграмме наполнения, "выдох" - по диаграмме потерь в выпускном тракте, а сам процесс - по графику количества или по осциллограмме давления. Это очень важная составляющая диагностики. К сожалению, есть еще много автосервисов, где о "дыхании" двигателя вообще не имеют понятия...

Хотя темы семинара во многом перекликаются с курсом "Эксперт", материал был заново обдуман, переработан и преподнесен в более удобном для понимания виде.
Скриншоты:


Время раздачи: 9.00-24.00. До 10 скачавших.

Способы оплаты:





Download
Советуем установить Brave Private Browser со встроеннымTor и IPFS для обхода блокировок.
Для скачивания .torrent файлов необходима регистрация
atorrent.xyz не распространяет и не хранит электронные версии произведений, а лишь предоставляет доступ к создаваемому пользователями каталогу ссылок на торрент-файлы, которые содержат только списки хеш-сумм.

Помоги нашему сайту любой суммой!


Кошелёк Номер счёта
На баланс телефона: +79046733080
Qiwi (Киви): +79046733080
Банковская карта: 5599 0050 8222 4002
Яндекс деньги (Можно перевести с любой карты): 410011822421129
(Рубли) WebMoney WMP: P981956481128
(Доллары) WebMoney WMZ: Z030977025876



Закрыть окно

Страница 1 из 1

Ответить на тему

   Похожие торренты   Торрент 




cron