Регистрация ·  Логин: Пароль: Запомнить   · Забыли пароль?




Ответить на тему
Автор Сообщение

Модератор
Аватара пользователя

С нами: 8 лет 6 месяцев
Сообщения: 37463
Город: Гуанчжоу
Китай

Сообщение 16 окт 2021, 22:28 

[Цитировать]

Уроки контраварийного и экстремального вождения (2007) DVD5
Страна: Россия
Год выпуска: 2007
Жанр: Обучающее видео

Описание:
Мы думаем, что эти уроки будут полезны всем. И тем, кто за рулем не одно десятилетие, и тем, чей водительский стаж пока исчисляется несколькими годами или месяцами. Потому что каждый обязательно найдет тут что-то новое и полезное.

Уроки помогут вам скорректировать свою водительскую посадку, научат правильной технике руления, прохождения поворотов, преодоления препятствий, секретам быстрого старта и безопасного торможения в самых разных условиях. Вы узнаете, что смертельно опасный занос сможет быть не только управляемым, но и полезным, чем отличаются приемы управления передне- и заднеприводным автомобилем. И еще - как выполнять некоторые трюки, которые мы часто видим в кино.

Режиссер: Владимир Гречанинов
Ведущие: Л.Ольшанский ,А.Колонтай
Продолжительность: 01:10:00

Качество видео: DVD-5
Формат: DVD-Video
Видео: MPEG2 Video 720x576 (4:3) 25.00fps 7788 Kbps
Аудио: Dolby AC3 48000Hz stereo 448Kbps
Код: выделить всеОбщее
Полное имя                       : F:\Раздачи\Уроки контраварийного и экстремального вождения (2007) DVD5\VIDEO_TS\VTS_01_1.VOB
Формат                           : MPEG-PS
Размер файла                     : 1024 Мбайт
Продолжительность                : 17 м.
Режим общего битрейта            : Переменный
Общий поток                      : 8403 Кбит/сек

Видео
Идентификатор                    : 224 (0xE0)
Формат                           : MPEG Video
Версия формата                   : Version 2
Профиль формата                  : [email protected]
Параметр BVOP формата            : Да
Параметр матрицы формата         : Выборочная
Продолжительность                : 17 м.
Вид битрейта                     : Переменный
Битрейт                          : 7788 Кбит/сек
Максимальный битрейт             : 8000 Кбит/сек
Ширина                           : 720 пикселей
Высота                           : 576 пикселей
Соотношение сторон               : 4:3
Частота кадров                   : 25,000 кадров/сек
Стандарт вещания                 : PAL
Цветовое пространство            : YUV
Субдискретизация насыщенности    : 4:2:0
Битовая глубина                  : 8 бит
Тип развёртки                    : Чересстрочная
Порядок развёртки                : Нижнее поле первое
Метод сжатия                     : С потерями
Бит/(Пиксели*Кадры)              : 0.751
Размер потока                    : 949 Мбайт (93%)

Аудио
Идентификатор                    : 189 (0xBD)-128 (0x80)
Формат                           : AC-3
Формат/Информация                : Audio Coding 3
Расширение режима                : CM (complete main)
Режим смешивания                 : DVD-Video
Продолжительность                : 17 м.
Вид битрейта                     : Постоянный
Битрейт                          : 448 Кбит/сек
Каналы                           : 2 канала
Расположение каналов             : Front: L R
Частота                          : 48,0 КГц
Битовая глубина                  : 16 бит
Метод сжатия                     : С потерями
Размер потока                    : 54,6 Мбайт (5%)

Меню
Скриншоты:

Время раздачи: 9.00 - 23.00 (по мере возможности...)

Способы оплаты:





Download
Советуем установить Brave Private Browser со встроеннымTor и IPFS для обхода блокировок.
Для скачивания .torrent файлов необходима регистрация
atorrent.xyz не распространяет и не хранит электронные версии произведений, а лишь предоставляет доступ к создаваемому пользователями каталогу ссылок на торрент-файлы, которые содержат только списки хеш-сумм.

Помоги нашему сайту любой суммой!


Кошелёк Номер счёта
На баланс телефона: +79046733080
Qiwi (Киви): +79046733080
Банковская карта: 5599 0050 8222 4002
Яндекс деньги (Можно перевести с любой карты): 410011822421129
(Рубли) WebMoney WMP: P981956481128
(Доллары) WebMoney WMZ: Z030977025876



Закрыть окно

Страница 1 из 1

Ответить на тему

   Похожие торренты   Торрент 




cron