Регистрация ·  Логин: Пароль: Запомнить   · Забыли пароль?




Ответить на тему
Автор Сообщение

Модератор
Аватара пользователя

С нами: 8 лет 6 месяцев
Сообщения: 37463
Город: Гуанчжоу
Китай

Сообщение 16 окт 2021, 22:29 

[Цитировать]

Алексей Пахомов | Ремонт электронных блоков управления современных автомобилей (2013) WEB-DL
Автор (режиссер): Алексей Пахомов
Жанр: Обучающие видеуроки
Продолжительность: 02:21:53
Качество видео: WEB-DL
Видеокодек: VC-1/WMV3
Битрейт видео: ~4138 kb/s, 25 FPS
Размер кадра: 1280x720
Аудиокодек: WMA
Битрейт аудио: 128 kb/s, 2Ch, 44100 Hz

Описание:
Вы занимаетесь диагностикой. Часто ли Вам приходилось приговаривать к замене электронный блок управления двигателем?
Не слишком часто, но было, верно? И Вы с сожалением меняли блок, потому что не знаете, как его восстановить или хотя бы попытаться восстановить.
"Но я ведь не инженер-электронщик и даже не радиолюбитель," - скажете Вы. Все правильно. Открою секрет: для того, чтобы выполнить самые распространенные виды ремонта ЭБУ, не нужно быть ни инженером, ни телемастером. Я научу Вас, как это делать, даже если Вы ни разу не держали в руках паяльника.
Вы сможете устранять наиболее распространенные дефекты ЭБУ ВАЗ, а также ЭБУ автомобилей иностранного производства.
Как это делать?
Смотрите видеокурс «Ремонт электронных блоков управления»
Отдельная огромная благодарность участнику retterret за предоставленный материал!
При проблемах воспроизведения звука рекомендую пользоваться VLC плеером.
General
Count : 285
Count of stream of this kind : 1
Kind of stream : General
Kind of stream : General
Stream identifier : 0
Inform : Windows Media: 4.25 GiB, 2h 21mn
Count of video streams : 1
Count of audio streams : 1
Video_Format_List : VC-1
Video_Format_WithHint_List : VC-1 (WMV3)
Codecs Video : WMV3
Video_Language_List : Russian
Audio_Format_List : WMA
Audio_Format_WithHint_List : WMA
Audio codecs : WMA2
Audio_Language_List : Russian
Complete name : Ремонт ЭБУ.wmv
Folder name :
File name : Ремонт ЭБУ
File extension : wmv
Format : Windows Media
Format : Windows Media
Format/Extensions usually used : asf wmv wma
Commercial name : Windows Media
Internet media type : video/x-ms-wmv
Codec : Windows Media
Codec : Windows Media
Codec/Extensions usually used : asf wmv wma
File size : 4563528523
File size : 4.25 GiB
File size : 4 GiB
File size : 4.3 GiB
File size : 4.25 GiB
File size : 4.250 GiB
Duration : 8513360
Duration : 2h 21mn
Duration : 2h 21mn 53s 360ms
Duration : 2h 21mn
Duration : 02:21:53.360
Overall bit rate mode : VBR
Overall bit rate mode : Variable
Overall bit rate : 4288345
Overall bit rate : 4 288 Kbps
Maximum Overall bit rate : 15488141
Maximum Overall bit rate : 15.5 Mbps
Stream size : 23463246
Stream size : 22.4 MiB (1%)
Stream size : 22 MiB
Stream size : 22 MiB
Stream size : 22.4 MiB
Stream size : 22.38 MiB
Stream size : 22.4 MiB (1%)
Proportion of this stream : 0.00514
HeaderSize : 5309
DataSize : 4563472050
Encoded date : UTC 2013-04-22 11:00:16.550
File last modification date : UTC 2014-11-15 14:18:13
File last modification date (local) : 2014-11-15 17:18:13
SfOriginalFPS : 250000

Video
Count : 277
Count of stream of this kind : 1
Kind of stream : Video
Kind of stream : Video
Stream identifier : 0
StreamOrder : 1
Inform : Russian, 4 138 Kbps, 1280*720 (16:9), at 25.000 fps, VC-1 (WMV3) ([email protected])
ID : 2
ID : 2
Format : VC-1
Commercial name : VC-1
Format profile : [email protected]
Internet media type : video/vc1
Codec ID : WMV3
Codec ID/Info : Windows Media Video 9
Codec ID/Hint : WMV3
Codec ID/Url : http://www.microsoft.com/windows/windowsmedia/format/codecdownload.aspx
Description of the codec : Windows Media Video 9 - Professional
Codec : WMV3
Codec : WMV3
Codec/Family : VC-1
Codec/Info : Windows Media Video 9
Codec/Url : http://www.microsoft.com/windows/windowsmedia/format/codecdownload.aspx
Codec/CC : WMV3
Codec profile : Main
Codec description : Windows Media Video 9 - Professional
Duration : 8513360
Duration : 2h 21mn
Duration : 2h 21mn 53s 360ms
Duration : 2h 21mn
Duration : 02:21:53.360
Bit rate mode : VBR
Bit rate mode : Variable
Bit rate : 4138257
Bit rate : 4 138 Kbps
Width : 1280
Width : 1 280 pixels
Height : 720
Height : 720 pixels
Pixel aspect ratio : 1.000
Display aspect ratio : 1.778
Display aspect ratio : 16:9
Frame rate : 25.000
Frame rate : 25.000 fps
Frame count : 212834
Resolution : 8
Resolution : 8 bits
Colorimetry : 4:2:0
Color space : YUV
Chroma subsampling : 4:2:0
Bit depth : 8
Bit depth : 8 bits
Scan type : Progressive
Scan type : Progressive
Interlacement : PPF
Interlacement : Progressive
Compression mode : Lossy
Compression mode : Lossy
Bits/(Pixel*Frame) : 0.180
Stream size : 4403808951
Stream size : 4.10 GiB (97%)
Stream size : 4 GiB
Stream size : 4.1 GiB
Stream size : 4.10 GiB
Stream size : 4.101 GiB
Stream size : 4.10 GiB (97%)
Proportion of this stream : 0.96500
Language : ru
Language : Russian
Language : Russian
Language : ru
Language : rus
Language : ru

Audio
Count : 222
Count of stream of this kind : 1
Kind of stream : Audio
Kind of stream : Audio
Stream identifier : 0
StreamOrder : 0
Inform : Russian, 128 Kbps, 44.1 KHz, 16 bits, 2 channels, WMA (Version 2)
ID : 1
ID : 1
Format : WMA
Commercial name : WMA
Format version : Version 2
Codec ID : 161
Codec ID/Info : Windows Media Audio
Codec ID/Url : http://www.microsoft.com/windows/windowsmedia/format/codecdownload.aspx
Description of the codec : Windows Media Audio 9.2 - 128 kbps, 44 kHz, stereo (A/V) 1-pass CBR
Codec : 161
Codec : WMA2
Codec/Info : Windows Media Audio 2
Codec/Url : http://www.microsoft.com/windows/windowsmedia/format/codecdownload.aspx
Codec/CC : 161
Codec description : Windows Media Audio 9.2 - 128 kbps, 44 kHz, stereo (A/V) 1-pass CBR
Duration : 8513360
Duration : 2h 21mn
Duration : 2h 21mn 53s 360ms
Duration : 2h 21mn
Duration : 02:21:53.360
Bit rate mode : CBR
Bit rate mode : Constant
Bit rate : 128040
Bit rate : 128 Kbps
Channel(s) : 2
Channel(s) : 2 channels
Sampling rate : 44100
Sampling rate : 44.1 KHz
Samples count : 375439176
Resolution : 16
Resolution : 16 bits
Bit depth : 16
Bit depth : 16 bits
Stream size : 136256326
Stream size : 130 MiB (3%)
Stream size : 130 MiB
Stream size : 130 MiB
Stream size : 130 MiB
Stream size : 129.9 MiB
Stream size : 130 MiB (3%)
Proportion of this stream : 0.02986
Language : ru
Language : Russian
Language : Russian
Language : ru
Language : rus
Language : ru
Скриншоты:


Время раздачи: Пн-Сб c 18:00 до 21:00, Вс с 09:00 до 21:00

Способы оплаты:





Download
Советуем установить Brave Private Browser со встроеннымTor и IPFS для обхода блокировок.
Для скачивания .torrent файлов необходима регистрация
atorrent.xyz не распространяет и не хранит электронные версии произведений, а лишь предоставляет доступ к создаваемому пользователями каталогу ссылок на торрент-файлы, которые содержат только списки хеш-сумм.

Помоги нашему сайту любой суммой!


Кошелёк Номер счёта
На баланс телефона: +79046733080
Qiwi (Киви): +79046733080
Банковская карта: 5599 0050 8222 4002
Яндекс деньги (Можно перевести с любой карты): 410011822421129
(Рубли) WebMoney WMP: P981956481128
(Доллары) WebMoney WMZ: Z030977025876



Закрыть окно

Страница 1 из 1

Ответить на тему

   Похожие торренты   Торрент 




cron