Регистрация ·  Логин: Пароль: Запомнить   · Забыли пароль?




Ответить на тему
Автор Сообщение

Модератор
Аватара пользователя

С нами: 8 лет 6 месяцев
Сообщения: 37463
Город: Гуанчжоу
Китай

Сообщение 16 окт 2021, 22:29 

[Цитировать]

Центр Автотехнологий | Обучение тонированию стёкол автомобиля (2019) WEB-DL
Производство: Центр Автотехнологий
Жанр: Автомобили

Описание:
1. Подробное ознакомление со всем необходимым инструментом и расходными материалами для
тонировки автостекол
2. Показаны способы снятия внутренних уплотнителей наиболее популярных марок автомобилей
3. Растонировка боковых стекол (снятие пленки со стекла и последующая очистка)
4. Правильный раскрой и вырезка пленки на боковые стекла (задняя дверь)
5. Замывка стекла задней двери перед поклейкой
6. Подробно показаны оклейка бокового стекла задней двери ; нанесение, прикатка и фиксация пленки
7. Вырезка выкройки и оклейка форточки задней двери
8. Вырезка и раскрой пленки на переднее боковое стекло
9. Замывка и подготовка к поклейке переднего бокового стекла
10. Оклейка переднего стекла : нанесение, прикатка и фиксация пленки
11. Раскрой пленки на заднее стекло
12. Подготовка заднего стекла : правильная и быстрая формовка с помощью фена
13. Точная вырезка пленки на заднее стекло
14. Замывка, нанесение и прикатка пленки на заднее стекло

Продолжительность: 00:58:09
Качество видео: WEB-DL

Видео: AVC/H.264, 1280x1024, ~794 Kbps
Аудио: AAC, 2 ch, ~54 Kbps
Код:
Общее
Полное имя                               : E:\Обучение тонированию стёкол автомобиля.mp4
Формат                                   : MPEG-4
Профиль формата                          : Base Media / Version 2
Идентификатор кодека                     : mp42 (M4V /mp42/isom)
Размер файла                             : 371 Мбайт
Продолжительность                        : 58 м. 9 с.
Общий поток                              : 892 Кбит/сек
Дата кодирования                         : UTC 2015-03-27 17:12:20
Дата пометки                             : UTC 2015-03-27 17:12:20

Видео
Идентификатор                            : 1
Формат                                   : AVC
Формат/Информация                        : Advanced Video Codec
Профиль формата                          : [url=https://nnmclub.to/mailto:[email protected]][email protected][/url]
Настройки формата                        : CABAC / 4 Ref Frames
Параметр CABAC формата                   : Да
Параметр RefFrames формата               : 4 кадра
Параметр GOP формата                     : M=1, N=100
Идентификатор кодека                     : avc1
Идентификатор кодека/Информация          : Advanced Video Coding
Продолжительность                        : 58 м. 9 с.
Продолжительность оригинала              : 58 м. 9 с.
Битрейт                                  : 794 Кбит/сек
Ширина                                   : 1280 пикселей
Высота                                   : 1024 пикселя
Соотношение сторон                       : 5:4
Режим частоты кадров                     : Постоянный
Частота кадров                           : 20,000 кадров/сек
Цветовое пространство                    : YUV
Субдискретизация насыщенности            : 4:2:0
Битовая глубина                          : 8 бит
Тип развёртки                            : Прогрессивная
Бит/(Пиксели*Кадры)                      : 0.030
Размер потока                            : 330 Мбайт (89%)
Размер потока оригинала                  : 348 Мбайт (94%)
Язык                                     : English
Дата кодирования                         : UTC 2015-03-27 17:12:20
Дата пометки                             : UTC 2015-03-27 17:12:20
Цветовой диапазон                        : Limited
Основные цвета                           : BT.709
Характеристики трансфера                 : BT.709
Коэффициенты матрицы                     : BT.709
mdhd_Duration                            : 3491731
Codec configuration box                  : avcC

Аудио
Идентификатор                            : 2
Формат                                   : AAC LC
Формат/Информация                        : Advanced Audio Codec Low Complexity
Идентификатор кодека                     : mp4a-40-2
Продолжительность                        : 58 м. 9 с.
Продолжительность оригинала              : 58 м. 9 с.
Вид битрейта                             : Постоянный
Битрейт                                  : 53,5 Кбит/сек
Каналы                                   : 2 канала
Channel layout                           : L R
Частота                                  : 44,1 КГц
Частота кадров                           : 43,066 кадра/сек (1024 SPF)
Метод сжатия                             : С потерями
Размер потока                            : 22,2 Мбайт (6%)
Размер потока оригинала                  : 22,2 Мбайт (6%)
Язык                                     : English
Дата кодирования                         : UTC 2015-03-27 17:12:20
Дата пометки                             : UTC 2015-03-27 17:12:20
mdhd_Duration                            : 3486186

Скриншоты:


Время раздачи: с 09.00 до 22.00 [GMT+3] (до появления первых 3-5 скачавших)

Способы оплаты:





Download
Советуем установить Brave Private Browser со встроеннымTor и IPFS для обхода блокировок.
Для скачивания .torrent файлов необходима регистрация
atorrent.xyz не распространяет и не хранит электронные версии произведений, а лишь предоставляет доступ к создаваемому пользователями каталогу ссылок на торрент-файлы, которые содержат только списки хеш-сумм.

Помоги нашему сайту любой суммой!


Кошелёк Номер счёта
На баланс телефона: +79046733080
Qiwi (Киви): +79046733080
Банковская карта: 5599 0050 8222 4002
Яндекс деньги (Можно перевести с любой карты): 410011822421129
(Рубли) WebMoney WMP: P981956481128
(Доллары) WebMoney WMZ: Z030977025876



Закрыть окно

Страница 1 из 1

Ответить на тему

   Похожие торренты   Торрент 




cron