Регистрация ·  Логин: Пароль: Запомнить   · Забыли пароль?




Ответить на тему
Автор Сообщение

Модератор
Аватара пользователя

С нами: 8 лет 6 месяцев
Сообщения: 37463
Город: Гуанчжоу
Китай

Сообщение 16 окт 2021, 22:29 

[Цитировать]

Udemy, Andrei Kaliadka, Roman Zhdanovich | Выбор и покупка автомобиля с пробегом (2021) WEB-DL [AD]
Автор: Andrei Kaliadka, Roman Zhdanovich
Производство: Udemy
Жанр: Автомобили

Описание:
Наш курс создан, чтобы избежать большинства этих рисков. Он разделен на 9 видеолекций. В каждой из них мы поэтапно раскрываем особенности процесса выбора и покупки автомобиля с пробегом.
Для того, чтобы Вы легче могли усвоить теоретический материал, мы разнообразили каждую лекцию схемами, изображениями и различными историями из личного опыта и практики.
А сам процесс проверки состояния автомобиля представлен наглядными примерами осмотров различных марок и моделей!
Курс занимает всего один час, но мы обещаем, что он пройдет максимально полезно: никакой воды - только информация по существу дела.
Не имеет значения, будете ли Вы впоследствии приобретать автомобиль с пробегом самостоятельно или же обращаться в какую-либо компанию по подбору автомобилей - информация, представленная здесь будет полезна как в первом, так и во втором случае:
пройдя данное обучение, Вы самостоятельно сможете отсеять множество неподходящих вариантов, не прибегая к посторонней помощи и сэкономить хорошую сумму;
вызывать специалистов только на осмотр уже предварительно отобранных Вами вариантов;
зная, как устроен процесс подбора, сможете избежать мошенничества недобросовестных специалистов.Курс сейчас находится в открытом доступе на Udemy.
Продолжительность: 00:55:34
Качество видео: WEB-DL

Видео: AVC/H.264, 1280x720, ~2852 Kbps
Аудио: AAC, 2 ch, ~101 Kbps
Код:
Общее
Полное имя                               : E:\[Udemy] Andrei Kaliadka, Roman Zhdanovich - Выбор и покупка автомобиля с пробегом (2020)\1. Что важно знать перед покупкой автомобиля с пробегом.mp4
Формат                                   : MPEG-4
Профиль формата                          : Base Media / Version 2
Идентификатор кодека                     : mp42 (mp42)
Размер файла                             : 140 Мбайт
Продолжительность                        : 6 м. 38 с.
Общий поток                              : 2961 Кбит/сек
Содиректор                               : codirector
Студия-производитель                     : studio
Тип содержимого                          : Unknown Type
Дата кодирования                         : UTC 2020-10-21 06:56:40
Дата пометки                             : UTC 2020-10-21 06:56:40

Видео
Идентификатор                            : 1
Формат                                   : AVC
Формат/Информация                        : Advanced Video Codec
Профиль формата                          : [url=https://nnmclub.to/mailto:[email protected]][email protected][/url]
Настройки формата                        : CABAC / 2 Ref Frames
Параметр CABAC формата                   : Да
Параметр RefFrames формата               : 2 кадра
Параметр GOP формата                     : M=3, N=25
Режим смешивания                         : Container [email protected]
Идентификатор кодека                     : avc1
Идентификатор кодека/Информация          : Advanced Video Coding
Продолжительность                        : 6 м. 38 с.
Битрейт                                  : 2852 Кбит/сек
Ширина                                   : 1280 пикселей
Высота                                   : 720 пикселей
Соотношение сторон                       : 16:9
Режим частоты кадров                     : Постоянный
Частота кадров                           : 30,000 кадров/сек
Цветовое пространство                    : YUV
Субдискретизация насыщенности            : 4:2:0
Битовая глубина                          : 8 бит
Тип развёртки                            : Прогрессивная
Бит/(Пиксели*Кадры)                      : 0.103
Размер потока                            : 135 Мбайт (96%)
Язык                                     : English
Codec configuration box                  : avcC

Аудио
Идентификатор                            : 2
Формат                                   : AAC LC
Формат/Информация                        : Advanced Audio Codec Low Complexity
Идентификатор кодека                     : mp4a-40-2
Продолжительность                        : 6 м. 37 с.
Вид битрейта                             : Постоянный
Битрейт                                  : 101 Кбит/сек
Каналы                                   : 2 канала
Channel layout                           : L R
Частота                                  : 44,1 КГц
Частота кадров                           : 43,066 кадра/сек (1024 SPF)
Метод сжатия                             : С потерями
Размер потока                            : 4,81 Мбайт (3%)
Заголовок                                : Stereo
Язык                                     : English
Default                                  : Да
AlternateGroup/String                    : 1

Скриншоты:


Время раздачи: с 09.00 до 22.00 [GMT+3] (до появления первых 3-5 скачавших)

Способы оплаты:





Download
Советуем установить Brave Private Browser со встроеннымTor и IPFS для обхода блокировок.
Для скачивания .torrent файлов необходима регистрация
atorrent.xyz не распространяет и не хранит электронные версии произведений, а лишь предоставляет доступ к создаваемому пользователями каталогу ссылок на торрент-файлы, которые содержат только списки хеш-сумм.

Помоги нашему сайту любой суммой!


Кошелёк Номер счёта
На баланс телефона: +79046733080
Qiwi (Киви): +79046733080
Банковская карта: 5599 0050 8222 4002
Яндекс деньги (Можно перевести с любой карты): 410011822421129
(Рубли) WebMoney WMP: P981956481128
(Доллары) WebMoney WMZ: Z030977025876



Закрыть окно

Страница 1 из 1

Ответить на тему

   Похожие торренты   Торрент